<?xml version="1.0" standalone="no"?>
<!DOCTYPE svg PUBLIC "-//W3C//DTD SVG 1.1//EN" "http://www.w3.org/Graphics/SVG/1.1/DTD/svg11.dtd" >
<svg xmlns="http://www.w3.org/2000/svg">
  <metadata>Created by iconfont</metadata>
  <defs>
  <font id="iconfont" horiz-adv-x="1024">
    <font-face
      font-family="iconfont"
      font-weight="400"
      font-stretch="normal"
      units-per-em="1024"
      ascent="896"
      descent="-128"
    />
      <missing-glyph />
      
      <glyph glyph-name="Tiktok-daiyuan" unicode="&#59236;" d="M512 896C230.4 896 0 665.6 0 384s230.4-512 512-512 512 230.4 512 512S793.6 896 512 896z m0-972.8C256-76.8 51.2 128 51.2 384S256 844.8 512 844.8 972.8 640 972.8 384 768-76.8 512-76.8zM627.2 400c25.6-9.6 54.4-16 86.4-16h3.2c12.8 0 25.6 12.8 25.6 25.6v60.8c0 16-12.8 25.6-28.8 25.6-54.4 0-99.2 35.2-108.8 86.4-3.2 16-16 28.8-32 28.8H512c-16 0-28.8-12.8-28.8-28.8v-268.8c0-22.4-19.2-41.6-41.6-41.6-22.4 0-41.6 19.2-41.6 41.6s19.2 41.6 41.6 41.6c6.4 0 12.8 6.4 12.8 12.8v86.4c0 9.6-6.4 16-12.8 16-86.4 0-156.8-70.4-156.8-156.8s70.4-156.8 156.8-156.8c83.2 0 156.8 57.6 156.8 140.8v105.6c0 3.2 3.2 6.4 9.6 6.4 3.2-3.2 6.4-3.2 9.6-6.4 3.2 0 6.4 0 9.6-3.2-3.2 0 0 0 0 0z"  horiz-adv-x="1024" />
      
      <glyph glyph-name="facebook-daiyuan" unicode="&#59239;" d="M512 896C230.4 896 0 665.6 0 384s230.4-512 512-512 512 230.4 512 512S793.6 896 512 896z m0-972.8C256-76.8 51.2 128 51.2 384S256 844.8 512 844.8 972.8 640 972.8 384 768-76.8 512-76.8zM396.8 384v76.8h44.8v44.8c0 60.8 19.2 105.6 86.4 105.6H608v-76.8h-57.6c-28.8 0-35.2-19.2-35.2-38.4v-38.4H608l-12.8-73.6h-73.6v-227.2H448V384h-51.2z"  horiz-adv-x="1024" />
      
      <glyph glyph-name="WhatsApp1" unicode="&#59237;" d="M72.338757 134.94829L0.000549-128l270.262567 70.582782a511.487452 511.487452 0 0 1 243.675168-61.805649h0.219428c280.977985 0 509.695454 227.656899 509.805168 507.428028a502.271462 502.271462 0 0 1-38.43653 194.376935 504.100031 504.100031 0 0 1-110.738167 164.607823A507.830313 507.830313 0 0 1 514.157712 895.998903C233.106585 895.998903 4.389115 668.378575 4.279401 388.607446a504.685174 504.685174 0 0 1 68.059356-253.659156z m288.548262 487.49662c7.460563 0.073143 16.713125 0.109714 25.819401-21.686834l14.48227-35.035391c10.861703-26.294829 22.674261-54.930227 24.795402-59.135936 3.181711-6.32685 5.302851-13.750842 1.097142-22.198834l-1.82857-3.620567a71.972494 71.972494 0 0 0-10.971416-17.554267c-2.121141-2.486854-4.315424-5.119995-6.509708-7.826277-4.388567-5.302851-8.777133-10.605703-12.580558-14.372557-6.363422-6.32685-13.019415-13.1657-5.558851-25.855972 7.423992-12.690272 32.987393-54.23537 70.875353-87.844477 40.667385-36.132533 76.06849-51.419373 93.98847-59.172508 3.510853-1.499427 6.363422-2.742854 8.41142-3.766853 12.763415-6.363422 20.187407-5.26628 27.611399 3.181711 7.460563 8.447991 31.85368 37.010246 40.338243 49.737089 8.521134 12.690272 17.005696 10.569132 28.671969 6.326851 11.702845-4.242281 74.313063-34.925677 87.039907-41.252528l6.948564-3.401139c8.923419-4.278853 14.921127-7.167992 17.481124-11.410273 3.181711-5.26628 3.181711-30.646824-7.423992-60.306221-10.605703-29.622825-61.513077-56.649082-86.015908-60.26965-21.942834-3.291425-49.700518-4.607995-80.201057 5.01028a734.609499 734.609499 0 0 0-72.630779 26.697114c-119.478729 51.382802-200.228357 166.655821-215.405484 188.342656a161.279827 161.279827 0 0 1-2.230855 3.108568l-0.073143 0.146285c-6.692564 8.886848-51.931373 68.900498-51.931372 131.035289 0 58.404509 28.818255 89.014762 42.057097 103.131318l2.523426 2.63314a46.811378 46.811378 0 0 0 33.93825 15.835411 521.142299 521.142299 0 0 0 27.318827-0.438856z"  horiz-adv-x="1024" />
      
      <glyph glyph-name="Tiktok-tianchong" unicode="&#59238;" d="M739.401143 417.133714a453.851429 453.851429 0 0 1 177.627428-33.097143c28.672 0.438857 50.102857 25.014857 50.102858 53.723429V561.225143c0 29.147429-27.794286 50.322286-56.905143 50.322286a227.657143 227.657143 0 0 0-220.525715 171.264c-7.753143 30.427429-32.512 56.32-63.926857 56.32H512c-31.451429 0-56.905143-25.490286-56.905143-56.905143V241.737143a85.321143 85.321143 0 1 0-85.321143 85.321143c14.153143 0 28.452571 10.020571 28.452572 24.137143v173.677714c0 16.128-12.324571 29.769143-28.452572 29.769143a312.905143 312.905143 0 0 1 0-625.773715c163.218286 0 312.905143 113.737143 311.588572 284.416l1.206857 211.968a11.776 11.776 0 0 0 17.261714 10.166858 453.485714 453.485714 0 0 1 38.985143-18.066286l0.585143-0.256z"  horiz-adv-x="1024" />
      
      <glyph glyph-name="lianjiejiantou" unicode="&#59235;" d="M842.353778 287.516444V681.927111a28.785778 28.785778 0 0 1-32.085334 32.028445H415.914667a28.444444 28.444444 0 1 1 0-56.888889h329.272889l-555.121778-555.121778a28.444444 28.444444 0 1 1 40.220444-40.220445l555.178667 555.121778v-329.386666a28.444444 28.444444 0 1 1 56.888889 0z"  horiz-adv-x="1024" />
      
      <glyph glyph-name="lihua-you" unicode="&#59234;" d="M100.310204 787.330612a43.885714 43.885714 0 1 1 87.771429 0 43.885714 43.885714 0 1 1-87.771429 0ZM666.644898 766.432653c0 25.077551-20.897959 43.885714-43.885714 43.885714-25.077551 0-43.885714-18.808163-43.885715-43.885714s20.897959-43.885714 43.885715-43.885714c25.077551 0 43.885714 18.808163 43.885714 43.885714zM430.497959 655.673469c0 12.538776 2.089796 25.077551 18.808163 41.795919 12.538776 12.538776 12.538776 33.436735 0 45.97551s-33.436735 12.538776-45.97551 0c-27.167347-25.077551-41.795918-58.514286-35.52653-96.130612 6.269388-33.436735 27.167347-66.873469 58.514285-98.220408l108.669388-106.579592c12.538776-12.538776 33.436735-12.538776 45.97551 0s12.538776 33.436735 0 45.97551l-108.669387 106.579592c-27.167347 27.167347-37.616327 45.97551-41.795919 60.604081zM359.444898 164.571429c-8.359184-8.359184-10.44898-20.897959-8.359184-31.346939s10.44898-18.808163 20.897959-22.987755l543.346939-171.363266c12.538776-4.179592 25.077551 0 33.436735 8.359184 10.44898 8.359184 12.538776 20.897959 8.359184 33.436735l-188.081633 530.808163c-2.089796 10.44898-12.538776 18.808163-22.987755 20.897959-12.538776 2.089796-22.987755 0-31.346939-8.359183L359.444898 164.571429z m83.591837-8.359184l282.122449 286.302041 150.465306-422.138776-432.587755 135.836735zM77.322449 419.526531c12.538776-12.538776 33.436735-12.538776 45.97551 0 33.436735 31.346939 60.604082 43.885714 85.681633 43.885714 25.077551 0 52.244898-12.538776 85.681632-43.885714l108.669388-106.579592c12.538776-12.538776 33.436735-12.538776 45.97551 0s12.538776 33.436735 0 45.97551l-108.669387 106.579592c-39.706122 39.706122-83.591837 62.693878-131.657143 62.693877s-91.95102-22.987755-131.657143-62.693877c-12.538776-12.538776-12.538776-33.436735 0-45.97551zM100.310204 292.04898c0-25.077551 20.897959-43.885714 43.885714-43.885715 25.077551 0 43.885714 20.897959 43.885715 43.885715 0 25.077551-20.897959 43.885714-43.885715 43.885714s-43.885714-18.808163-43.885714-43.885714zM165.093878 97.697959c0-25.077551 20.897959-43.885714 43.885714-43.885714 25.077551 0 43.885714 20.897959 43.885714 43.885714 0 25.077551-20.897959 43.885714-43.885714 43.885714s-43.885714-18.808163-43.885714-43.885714z"  horiz-adv-x="1024" />
      
      <glyph glyph-name="lihua1" unicode="&#59233;" d="M838.008163 787.330612a43.885714 43.885714 0 1 1 87.771429 0 43.885714 43.885714 0 1 1-87.771429 0ZM403.330612 722.546939c22.987755 0 43.885714 18.808163 43.885715 43.885714s-18.808163 43.885714-43.885715 43.885714c-22.987755 0-43.885714-18.808163-43.885714-43.885714s18.808163-43.885714 43.885714-43.885714zM553.795918 595.069388l-108.669387-106.579592c-12.538776-12.538776-12.538776-33.436735 0-45.97551 12.538776-12.538776 33.436735-12.538776 45.97551 0l108.669388 106.579592c31.346939 31.346939 52.244898 64.783673 58.514285 98.220408 6.269388 37.616327-8.359184 71.053061-35.52653 96.130612-12.538776 12.538776-33.436735 12.538776-45.975511 0-12.538776-12.538776-12.538776-33.436735 0-45.97551 16.718367-16.718367 18.808163-29.257143 18.808164-41.795919-4.179592-14.628571-14.628571-33.436735-41.795919-60.604081zM311.379592 524.016327c-8.359184 8.359184-18.808163 10.44898-31.346939 8.359183-10.44898-2.089796-20.897959-10.44898-22.987755-20.897959l-188.081633-530.808163c-4.179592-12.538776-2.089796-25.077551 8.359184-33.436735 8.359184-8.359184 20.897959-12.538776 33.436735-8.359184l543.346938 171.363266c10.44898 4.179592 18.808163 12.538776 20.89796 22.987755 2.089796 10.44898 0 22.987755-8.359184 31.346939l-355.265306 359.444898zM150.465306 20.37551l150.465306 422.138776 282.122449-286.302041-432.587755-135.836735zM948.767347 465.502041c-39.706122 39.706122-83.591837 62.693878-131.657143 62.693877s-91.95102-22.987755-131.657143-62.693877l-108.669388-106.579592c-12.538776-12.538776-12.538776-33.436735 0-45.97551 12.538776-12.538776 33.436735-12.538776 45.975511 0l108.669387 106.579592c33.436735 31.346939 60.604082 43.885714 85.681633 43.885714 25.077551 0 52.244898-12.538776 85.681633-43.885714 12.538776-12.538776 33.436735-12.538776 45.97551 0 12.538776 12.538776 12.538776 33.436735 0 45.97551zM881.893878 335.934694c-22.987755 0-43.885714-18.808163-43.885715-43.885714 0-22.987755 18.808163-43.885714 43.885715-43.885715 22.987755 0 43.885714 18.808163 43.885714 43.885715 0 25.077551-20.897959 43.885714-43.885714 43.885714zM817.110204 141.583673c-22.987755 0-43.885714-18.808163-43.885714-43.885714 0-22.987755 18.808163-43.885714 43.885714-43.885714 22.987755 0 43.885714 18.808163 43.885714 43.885714 0 25.077551-20.897959 43.885714-43.885714 43.885714z"  horiz-adv-x="1024" />
      
      <glyph glyph-name="xiangxia-copy" unicode="&#59231;" d="M838.116 199.54999999999995L877.7 239.13300000000004 511.979 604.779 146.3 239.13300000000004 185.883 199.54999999999995 512.003 525.6759999999999Z"  horiz-adv-x="1024" />
      
      <glyph glyph-name="xiangxia" unicode="&#58880;" d="M185.884 568.45 146.3 528.867 512.021 163.221 877.7 528.867 838.117 568.45 511.997 242.324Z"  horiz-adv-x="1024" />
      
      <glyph glyph-name="guanbi" unicode="&#59229;" d="M770.048 85.467429a28.452571 28.452571 0 1 1 40.228571 40.228571L552.228571 383.707429l258.048 258.011428a28.452571 28.452571 0 0 1-40.228571 40.228572L512 423.936 253.988571 681.947429a28.452571 28.452571 0 1 1-40.228571-40.228572l258.011429-258.011428-258.011429-258.011429a28.452571 28.452571 0 1 1 40.228571-40.228571L512 343.478857l258.048-258.011428z"  horiz-adv-x="1024" />
      
      <glyph glyph-name="shezhipeizhi" unicode="&#59230;" d="M650.378378 826.810811a27.675676 27.675676 0 0 1-27.675675-27.675676v-55.351351H96.864865a27.675676 27.675676 0 0 1 0-55.351352h525.837838v-55.351351a27.675676 27.675676 0 1 1 55.351351 0v166.054054a27.675676 27.675676 0 0 1-27.675676 27.675676zM788.756757 743.783784a27.675676 27.675676 0 1 1 0-55.351352h138.378378a27.675676 27.675676 0 1 1 0 55.351352h-138.378378zM96.864865 79.567568a27.675676 27.675676 0 1 1 0-55.351352h525.837838v-55.351351a27.675676 27.675676 0 1 1 55.351351 0v166.054054a27.675676 27.675676 0 1 1-55.351351 0v-55.351351H96.864865zM788.756757 79.567568a27.675676 27.675676 0 1 1 0-55.351352h138.378378a27.675676 27.675676 0 1 1 0 55.351352h-138.378378zM69.189189 384a27.675676 27.675676 0 0 0 27.675676 27.675676h138.378378a27.675676 27.675676 0 1 0 0-55.351352H96.864865a27.675676 27.675676 0 0 0-27.675676 27.675676zM401.297297 411.675676h525.837838a27.675676 27.675676 0 1 0 0-55.351352H401.297297v-55.351351a27.675676 27.675676 0 1 0-55.351351 0v166.054054a27.675676 27.675676 0 1 0 55.351351 0v-55.351351z"  horiz-adv-x="1024" />
      
      <glyph glyph-name="pingguo_apple" unicode="&#59225;" d="M512.166054 661.282595c1.937297 52.943568 16.799135 99.438703 44.281081 138.323027 27.564973 39.078054 73.202162 66.836757 135.610811 82.55654l1.328432-5.75654v-10.073946c0-22.804757-5.535135-48.985946-16.467027-77.740973-11.430054-27.84173-29.336216-54.07827-53.081946-77.740973-22.223568-20.839784-42.786595-34.649946-60.941837-40.876973a197.189189 197.189189 0 0 0-24.160865-5.147676c-8.856216-1.383784-17.712432-2.573838-26.568649-3.542486zM333.491892 680.683243c-44.032 0-106.219243-19.594378-157.419243-69.742702-52.251676-51.116973-91.052973-131.90227-91.052973-250.575568 0-228.988541 128.802595-378.160432 148.839783-401.352649l1.21773-1.439135c0.747243-0.885622 1.660541-1.937297 2.684541-3.210378 14.52973-17.518703 56.873514-68.524973 122.520216-68.524973 31.55027 0 63.128216 11.789838 88.008649 21.061189l3.874594 1.439135c28.395243 10.572108 50.176 18.044541 70.406919 18.044541 20.839784 0 46.495135-7.859892 77.768649-18.404325l4.428108-1.494486c13.339676-4.511135 27.537297-9.326703 41.043027-13.035243 14.917189-4.096 31.439568-7.610811 47.574486-7.610811 28.312216 0 50.978595 5.95027 71.569298 18.459676 18.653405 11.291676 34.096432 27.288216 48.709189 42.399135l0.608865 0.581189c18.542703 19.179243 42.841946 54.659459 64.31827 90.859243 21.753081 36.614919 43.035676 78.045405 54.493405 110.564324a35.590919 35.590919 0 0 1-15.36 42.399136c-33.127784 19.732757-106.828108 65.536-106.828108 169.264432 0 73.174486 26.208865 132.538811 79.346162 180.611459 13.754811 12.454054 15.664432 33.376865 4.345082 48.072649-44.751568 58.229622-100.518054 91.606486-166.801298 91.606487-48.515459 0-89.004973-19.345297-121.025729-34.649946-34.483892-16.467027-58.506378-27.703351-84.189406-27.703352-25.157189 0-47.436108 10.904216-78.377513 27.122162l-2.712217 1.41146C413.419243 661.587027 377.02573 680.683243 333.491892 680.683243z"  horiz-adv-x="1024" />
      
      <glyph glyph-name="chuntubiao-logo" unicode="&#59226;" d="M827.84 198.72C785.792 11.733333 618.752-128 419.050667-128 187.626667-128 0 59.626667 0 291.050667 0 510.464 168.64 690.432 383.36 708.565333c0-0.085333-0.042667-0.128-0.064-0.213333a98.346667 98.346667 0 0 0 106.346667-115.797333c-1.386667-9.962667-2.154667-20.16-2.154667-30.506667 0-123.456 100.053333-223.509333 223.488-223.509333 2.197333 0 4.394667 0.064 6.592 0.106666-0.042667-0.042667-0.042667-0.106667-0.042667-0.149333l2.133334 0.042667a111.744 111.744 0 0 0 108.16-139.818667z m-455.488-171.093333l-0.32 0.512a22.08 22.08 0 0 1-14.826667 10.56c-113.92 27.818667-198.464 130.538667-198.464 253.013333 0 25.28 3.648 49.706667 10.389334 72.853333a22.037333 22.037333 0 0 1-42.197334 12.352 304.234667 304.234667 0 0 1-12.138666-85.226666c0-142.869333 98.453333-262.698667 231.189333-295.466667a22.016 22.016 0 0 1 26.325333 31.402667h0.042667zM1008.106667 59.434667l0.085333 0.192a98.346667 98.346667 0 0 0-106.346667 115.797333c1.386667 9.984 2.133333 20.16 2.133334 30.549333 0 123.413333-100.053333 223.488-223.445334 223.488-2.24 0-4.394667-0.064-6.613333-0.128 0.042667 0.064 0.042667 0.106667 0.042667 0.149334h-2.133334a111.722667 111.722667 0 0 0-108.16 139.776C605.696 756.266667 772.736 896 972.458667 896c231.424 0 419.029333-187.626667 419.029333-419.050667 0-219.434667-168.64-399.402667-383.36-417.493333zM1149.866667 739.904a303.786667 303.786667 0 0 1-79.850667 32.128 21.973333 21.973333 0 1 1-10.410667-42.709333c23.402667-5.738667 46.4-14.805333 68.288-27.456 106.069333-61.248 152.746667-185.813333 119.893334-298.346667a21.973333 21.973333 0 0 1 1.770666-18.112l-0.085333-0.021333 0.32-0.512h0.021333a22.037333 22.037333 0 0 1 40.362667 7.082666c37.994667 131.349333-16.576 276.544-140.309333 347.946667z"  horiz-adv-x="1408" />
      
      <glyph glyph-name="google-play" unicode="&#59227;" d="M646.863568 426.233081L217.392432 856.866595l546.400865-313.676109-116.929729-116.957405zM105.305946 882.162162C79.982703 868.933189 63.072865 844.8 63.072865 813.471135v-858.74854c0-31.328865 16.937514-55.462054 42.233081-68.691027l499.32454 498.162162L105.305946 882.162162z m827.419676-439.019243l-114.632649 66.36627-127.861622-125.509189 127.861622-125.509189 116.957405 66.36627c35.037405 27.814054 35.037405 90.471784-2.324756 118.285838zM217.392432-88.838919l546.400865 313.676108-116.929729 116.957406-429.471136-430.633514z"  horiz-adv-x="1024" />
      
      <glyph glyph-name="hanbao" unicode="&#59228;" d="M56.905143 696.905143c0 15.725714 12.726857 28.416 28.416 28.416h853.357714a28.452571 28.452571 0 0 0 0-56.868572H85.321143a28.452571 28.452571 0 0 0-28.416 28.452572zM56.905143 376.905143c0 15.725714 12.726857 28.452571 28.416 28.452571h853.357714a28.452571 28.452571 0 0 0 0-56.905143H85.321143a28.452571 28.452571 0 0 0-28.416 28.452572zM85.321143 85.357714a28.452571 28.452571 0 1 1 0-56.905143h853.357714a28.452571 28.452571 0 0 1 0 56.905143H85.321143z"  horiz-adv-x="1024" />
      
      <glyph glyph-name="facebook" unicode="&#59224;" d="M256 384.694857V554.678857h104.155429v102.765714C360.155429 796.16 401.590857 896 553.398857 896h180.553143v-169.581714h-127.085714c-63.707429 0-78.189714-42.313143-78.189715-86.674286v-85.065143h195.913143l-26.697143-169.984h-169.179428V-128H360.155429V384.694857H256z"  horiz-adv-x="1024" />
      
      <glyph glyph-name="Tiktok" unicode="&#59211;" d="M399.006897-92.689655H264.827586C137.710345-92.689655 35.310345 9.710345 35.310345 136.827586v21.186207c0 10.593103-7.062069 17.655172-17.655173 17.655173s-17.655172-7.062069-17.655172-17.655173V136.827586c0-146.537931 118.289655-264.827586 264.827586-264.827586h134.179311c10.593103 0 17.655172 7.062069 17.655172 17.655172s-7.062069 17.655172-17.655172 17.655173zM759.172414 896H264.827586C118.289655 896 0 777.710345 0 631.172414v-360.165517c0-10.593103 7.062069-17.655172 17.655172-17.655173s17.655172 7.062069 17.655173 17.655173V631.172414C35.310345 758.289655 137.710345 860.689655 264.827586 860.689655h494.344828c127.117241 0 229.517241-102.4 229.517241-229.517241v-494.344828c0-127.117241-102.4-229.517241-229.517241-229.517241H526.124138c-10.593103 0-17.655172-7.062069-17.655172-17.655173s7.062069-17.655172 17.655172-17.655172H759.172414c146.537931 0 264.827586 118.289655 264.827586 264.827586V631.172414c0 146.537931-118.289655 264.827586-264.827586 264.827586zM605.572414 290.427586v116.524138c0 5.296552 5.296552 7.062069 8.827586 5.296552 3.531034-1.765517 7.062069-3.531034 12.358621-5.296552 3.531034-1.765517 7.062069-3.531034 10.593103-3.531034 28.248276-12.358621 61.793103-17.655172 93.572414-17.655173h3.531034c15.889655 0 28.248276 14.124138 28.248276 30.013793v68.855173c0 15.889655-15.889655 28.248276-31.77931 28.248276-58.262069 0-107.696552 40.606897-121.82069 95.337931-3.531034 17.655172-17.655172 31.77931-35.310345 31.77931H512c-17.655172 0-31.77931-14.124138-31.77931-31.77931v-298.372414c0-26.482759-21.186207-47.668966-47.668966-47.668966s-47.668966 21.186207-47.668965 47.668966c0 26.482759 21.186207 47.668966 47.668965 47.668965 7.062069 0 15.889655 5.296552 15.889655 14.124138v95.337931c0 8.827586-7.062069 15.889655-15.889655 15.889656-95.337931 0-173.02069-77.682759-173.02069-173.02069s77.682759-173.02069 173.02069-173.02069c91.806897-3.531034 173.02069 58.262069 173.02069 153.6z m-171.255173-125.351724c-77.682759 0-141.241379 63.558621-141.241379 141.241379 0 72.386207 54.731034 132.413793 125.351724 141.24138V384c-35.310345-7.062069-63.558621-38.841379-63.55862-77.682759 0-44.137931 35.310345-77.682759 77.682758-77.682758s77.682759 35.310345 77.682759 77.682758V602.924138h65.324138c1.765517-1.765517 3.531034-3.531034 3.531034-7.062069 17.655172-67.089655 79.448276-118.289655 151.834483-118.289655v-63.558621c-37.075862 0-70.62069 8.827586-102.4 24.717241-24.717241 12.358621-54.731034-3.531034-54.731035-33.544827v-116.524138c0-70.62069-63.558621-123.586207-139.475862-123.586207z"  horiz-adv-x="1024" />
      
      <glyph glyph-name="a-tiktok1" unicode="&#59212;" d="M398.933333-91.733333h-134.4c-125.866667 0-230.4 102.4-230.4 230.4v21.333333c0 10.666667-8.533333 17.066667-17.066666 17.066667-10.666667 0-17.066667-8.533333-17.066667-17.066667v-21.333333C0-8.533333 119.466667-128 264.533333-128h134.4c10.666667 0 17.066667 8.533333 17.066667 17.066667 0 10.666667-6.4 19.2-17.066667 19.2zM759.466667 896H264.533333C119.466667 896 0 776.533333 0 631.466667v-360.533334c0-10.666667 8.533333-17.066667 17.066667-17.066666 10.666667 0 17.066667 8.533333 17.066666 17.066666V631.466667c0 125.866667 102.4 230.4 230.4 230.4h494.933334c125.866667 0 230.4-102.4 230.4-230.4v-494.933334c0-125.866667-102.4-230.4-230.4-230.4H526.933333c-10.666667 0-17.066667-8.533333-17.066666-17.066666 0-10.666667 8.533333-17.066667 17.066666-17.066667h232.533334C904.533333-128 1024-8.533333 1024 136.533333V631.466667C1024 776.533333 904.533333 896 759.466667 896zM605.866667 290.133333v117.333334c0 4.266667 4.266667 8.533333 8.533333 6.4 4.266667-2.133333 8.533333-4.266667 10.666667-6.4 4.266667-2.133333 6.4-2.133333 10.666666-4.266667 29.866667-12.8 61.866667-19.2 93.866667-19.2h4.266667c14.933333 0 27.733333 12.8 27.733333 29.866667v68.266666c0 17.066667-14.933333 27.733333-32 27.733334-57.6 0-108.8 40.533333-121.6 93.866666-4.266667 17.066667-17.066667 32-36.266667 32H512c-17.066667 0-32-14.933333-32-32v-298.666666c0-25.6-21.333333-46.933333-46.933333-46.933334-25.6 0-46.933333 21.333333-46.933334 46.933334 0 25.6 21.333333 46.933333 46.933334 46.933333 8.533333 0 14.933333 6.4 14.933333 12.8v96c0 8.533333-6.4 17.066667-14.933333 17.066667-96 0-172.8-76.8-172.8-172.8s76.8-172.8 172.8-172.8c89.6 0 172.8 64 172.8 157.866666z m-172.8-125.866666c-78.933333 0-140.8 64-140.8 140.8 0 72.533333 55.466667 132.266667 125.866666 140.8v-64c-36.266667-6.4-61.866667-38.4-61.866666-76.8 0-42.666667 34.133333-78.933333 78.933333-78.933334s78.933333 34.133333 78.933333 78.933334v298.666666h64c2.133333-2.133333 2.133333-4.266667 4.266667-6.4 17.066667-68.266667 78.933333-117.333333 151.466667-117.333333v-61.866667c-36.266667 0-70.4 8.533333-102.4 25.6-23.466667 12.8-55.466667-4.266667-55.466667-34.133333v-117.333333c-2.133333-74.666667-66.133333-128-142.933333-128z"  horiz-adv-x="1024" />
      
      <glyph glyph-name="WhatsApp" unicode="&#59213;" d="M983.771429 581.485714c-25.6 62.171429-62.171429 117.028571-109.714286 164.571429C778.971429 844.8 650.971429 896 515.657143 896 234.057143 896 3.657143 669.257143 3.657143 387.657143c0-87.771429 21.942857-175.542857 69.485714-252.342857L0-128l270.628571 69.485714c73.142857-40.228571 157.257143-62.171429 245.028572-62.171428 281.6 0 508.342857 226.742857 508.342857 508.342857 0 65.828571-14.628571 131.657143-40.228571 193.828571z m-219.428572-373.028571c-10.971429-29.257143-62.171429-54.857143-87.771428-58.514286-21.942857-3.657143-51.2-3.657143-80.457143 3.657143-18.285714 7.314286-43.885714 14.628571-73.142857 25.6-120.685714 51.2-201.142857 168.228571-215.771429 186.514286 0 0 0 3.657143-3.657143 3.657143-3.657143 10.971429-47.542857 69.485714-47.542857 131.657142 0 58.514286 29.257143 87.771429 40.228571 102.4 0 0 0 3.657143 3.657143 3.657143 10.971429 10.971429 25.6 14.628571 32.914286 14.628572H362.057143c7.314286 0 18.285714 0 25.6-21.942857 3.657143-7.314286 7.314286-21.942857 14.628571-36.571429 10.971429-25.6 21.942857-54.857143 25.6-58.514286 3.657143-7.314286 3.657143-14.628571 0-21.942857v-3.657143c-3.657143-7.314286-7.314286-10.971429-10.971428-18.285714l-7.314286-7.314286c-3.657143-3.657143-7.314286-10.971429-10.971429-14.628571-7.314286-7.314286-14.628571-14.628571-7.314285-25.6 7.314286-10.971429 32.914286-54.857143 69.485714-87.771429 40.228571-36.571429 76.8-51.2 95.085714-58.514285 3.657143 0 7.314286-3.657143 7.314286-3.657143 10.971429-7.314286 21.942857-3.657143 29.257143 3.657143 7.314286 7.314286 32.914286 36.571429 40.228571 51.2 7.314286 10.971429 18.285714 10.971429 29.257143 7.314285 10.971429-3.657143 73.142857-36.571429 87.771429-40.228571 3.657143 0 3.657143-3.657143 7.314285-3.657143 7.314286-3.657143 14.628571-7.314286 18.285715-10.971429 0-7.314286 0-32.914286-10.971429-62.171428z"  horiz-adv-x="1024" />
      
      <glyph glyph-name="WhatsApp-bai" unicode="&#59214;" d="M952.32 558.08c-20.48 56.32-56.32 102.4-97.28 148.48C768 793.6 655.36 839.68 537.6 839.68c-250.88 0-450.56-204.8-450.56-450.56 0-76.8 20.48-158.72 61.44-225.28l-66.56-235.52 240.64 61.44c66.56-35.84 138.24-56.32 215.04-56.32 250.88 0 450.56 204.8 450.56 450.56 0 61.44-10.24 122.88-35.84 174.08z m-194.56-332.8c-10.24-25.6-56.32-51.2-76.8-51.2-20.48-5.12-46.08-5.12-71.68 5.12-15.36 5.12-35.84 10.24-66.56 25.6-107.52 46.08-179.2 148.48-189.44 168.96v5.12C348.16 378.88 307.2 435.2 307.2 486.4s25.6 76.8 35.84 92.16c15.36 15.36 25.6 15.36 35.84 15.36h20.48c5.12 0 15.36 0 20.48-20.48 5.12-5.12 10.24-20.48 15.36-30.72l20.48-51.2c5.12-5.12 10.24-10.24 5.12-20.48v-5.12c-5.12 0-5.12-5.12-10.24-10.24l-5.12-5.12c-5.12-10.24-10.24-10.24-15.36-15.36-5.12-5.12-10.24-10.24-5.12-25.6 5.12-10.24 30.72-46.08 61.44-76.8 35.84-30.72 66.56-46.08 81.92-51.2 5.12 0 5.12 0 5.12-5.12 10.24-5.12 15.36-5.12 25.6 5.12 5.12 5.12 30.72 30.72 35.84 46.08 5.12 10.24 15.36 10.24 25.6 5.12s66.56-30.72 76.8-35.84c0 0 5.12 0 5.12-5.12 10.24-5.12 15.36-5.12 15.36-10.24 10.24-5.12 10.24-30.72 0-56.32z"  horiz-adv-x="1075" />
      
      <glyph glyph-name="dianzan" unicode="&#59215;" d="M759.172414 896H264.827586C118.289655 896 0 777.710345 0 631.172414v-360.165517c0-10.593103 7.062069-17.655172 17.655172-17.655173s17.655172 7.062069 17.655173 17.655173V631.172414C35.310345 758.289655 137.710345 860.689655 264.827586 860.689655h494.344828c127.117241 0 229.517241-102.4 229.517241-229.517241v-494.344828c0-127.117241-102.4-229.517241-229.517241-229.517241H526.124138c-10.593103 0-17.655172-7.062069-17.655172-17.655173s7.062069-17.655172 17.655172-17.655172H759.172414c146.537931 0 264.827586 118.289655 264.827586 264.827586V631.172414c0 146.537931-118.289655 264.827586-264.827586 264.827586zM399.006897-92.689655H264.827586C137.710345-92.689655 35.310345 9.710345 35.310345 136.827586v21.186207c0 10.593103-7.062069 17.655172-17.655173 17.655173s-17.655172-7.062069-17.655172-17.655173V136.827586c0-146.537931 118.289655-264.827586 264.827586-264.827586h134.179311c10.593103 0 17.655172 7.062069 17.655172 17.655172s-7.062069 17.655172-17.655172 17.655173zM718.565517 203.917241l40.606897 157.131035c15.889655 60.027586-30.013793 116.524138-91.806897 116.524138h-61.793103c-17.655172 0-31.77931 14.124138-31.779311 31.77931v45.903448c0 44.137931-35.310345 79.448276-79.448275 79.448276-26.482759 0-49.434483-19.42069-52.965518-45.903448l-14.124138-93.572414c-1.765517-12.358621-10.593103-22.951724-22.951724-28.248276-30.013793-15.889655-51.2-47.668966-51.2-84.744827V225.103448c0-51.2 42.372414-93.572414 93.572414-93.572414h178.317241c45.903448 1.765517 82.97931 30.013793 93.572414 72.386207z m-331.917241 22.951725V384c0 24.717241 14.124138 45.903448 33.544827 56.496552 17.655172 8.827586 35.310345 24.717241 38.84138 51.2l14.124138 93.572414c1.765517 10.593103 10.593103 19.42069 21.186207 19.420689 26.482759 0 47.668966-21.186207 47.668965-47.668965v-45.903449c0-35.310345 28.248276-63.558621 63.558621-63.55862h61.793103c40.606897 0 70.62069-38.841379 60.027586-77.682759l-38.841379-158.896552c-7.062069-28.248276-31.77931-47.668966-60.027586-47.668965H448.441379c-33.544828 1.765517-61.793103 28.248276-61.793103 63.558621zM277.186207 179.2c8.827586 0 15.889655 7.062069 15.889655 15.889655V415.77931c0 8.827586-7.062069 15.889655-15.889655 15.889656s-15.889655-7.062069-15.889655-15.889656v-218.924138c0-10.593103 7.062069-17.655172 15.889655-17.655172z"  horiz-adv-x="1024" />
      
      <glyph glyph-name="huangguan" unicode="&#59216;" d="M0 631.172414C0 777.427862 118.572138 896 264.827586 896h494.344828c146.255448 0 264.827586-118.572138 264.827586-264.827586v-494.344828c0-146.255448-118.572138-264.827586-264.827586-264.827586H526.124138a17.655172 17.655172 0 1 0 0 35.310345H759.172414c126.764138 0 229.517241 102.753103 229.517241 229.517241V631.172414c0 126.764138-102.753103 229.517241-229.517241 229.517241H264.827586C138.063448 860.689655 35.310345 757.936552 35.310345 631.172414v-360.165517a17.655172 17.655172 0 1 0-35.310345 0V631.172414z m17.655172-455.503448a17.655172 17.655172 0 0 0 17.655173-17.655173V136.827586c0-126.764138 102.753103-229.517241 229.517241-229.517241h134.179311a17.655172 17.655172 0 1 0 0-35.310345H264.827586C118.572138-128 0-9.427862 0 136.827586v21.186207a17.655172 17.655172 0 0 0 17.655172 17.655173zM512 575.01131l3.866483 2.330483c2.754207 1.659586 5.420138 5.420138 5.420138 10.663724 0 8.333241-5.932138 11.776-9.286621 11.776s-9.286621-3.442759-9.286621-11.776c0-5.243586 2.665931-9.004138 5.420138-10.663724l3.866483-2.330483z m0-61.175172l-64.617931-119.348966c-14.018207-25.917793-47.933793-35.222069-73.127724-16.93131l-48.887173 35.486897 28.566069-150.775173c5.437793-28.672 28.530759-46.962759 52.788966-46.962758h210.555586c24.258207 0 47.351172 18.290759 52.788966 46.962758l28.566069 150.775173-48.904828-35.486897c-25.193931-18.290759-59.091862-8.986483-73.092414 16.913655L512 513.836138z m201.127724-46.662621a49.010759 49.010759 0 0 0-7.838896 26.659311c0 26.023724 19.950345 47.104 44.596965 47.104 24.628966 0 44.596966-21.080276 44.596966-47.086345 0-26.006069-19.968-47.086345-44.596966-47.086345a42.425379 42.425379 0 0 0-8.756965 0.918069l-36.369656-192c-7.362207-38.788414-36.652138-67.990069-72.615724-74.381241a84.921379 84.921379 0 0 0-14.865655-1.324138H406.722207a84.921379 84.921379 0 0 0-14.865655 1.324138c-35.963586 6.391172-65.271172 35.592828-72.615724 74.381241l-36.369656 192a42.248828 42.248828 0 0 0-8.756965-0.918069c-24.628966 0-44.596966 21.080276-44.596966 47.086345 0 26.006069 19.968 47.086345 44.596966 47.086345 24.646621 0 44.614621-21.080276 44.614621-47.086345a49.028414 49.028414 0 0 0-7.856552-26.659311l84.126896-61.051586c7.168-5.208276 17.001931-2.824828 21.327449 5.137655l73.533793 135.856552c-13.417931 8.121379-22.457379 23.375448-22.45738 40.889379 0 25.988414 19.950345 47.06869 44.596966 47.06869 24.628966 0 44.596966-21.080276 44.596966-47.086345 0-17.478621-9.039448-32.768-22.45738-40.871724l73.533793-135.856552c4.307862-7.962483 14.159448-10.345931 21.327449-5.137655l84.126896 61.033931z m-434.123034 15.766069l2.295172 3.531035a13.417931 13.417931 0 0 1 2.118621 7.379862c0 8.333241-5.949793 11.776-9.304276 11.776s-9.286621-3.442759-9.286621-11.776c0-8.315586 5.932138-11.776 9.286621-11.776 0.529655 0 1.041655 0.070621 1.50069 0.176551l3.389793 0.706207z m119.401931-337.99062a16.013241 16.013241 0 0 1-5.349518-12.040828c0-8.66869 6.656-15.713103 14.865656-15.713104h208.154482c8.209655 0 14.865655 7.044414 14.865656 15.713104a16.013241 16.013241 0 0 1-5.349518 12.040828 14.388966 14.388966 0 0 1-9.533793 3.65462H407.940414a14.406621 14.406621 0 0 1-9.533793-3.65462z m346.588689 337.99062l3.389793-0.706207a7.238621 7.238621 0 0 1 1.50069-0.158896c3.354483 0 9.286621 3.460414 9.286621 11.776 0 8.333241-5.932138 11.776-9.286621 11.776s-9.304276-3.442759-9.304276-11.776a13.417931 13.417931 0 0 1 2.118621-7.379862l2.295172-3.531035z"  horiz-adv-x="1024" />
      
      <glyph glyph-name="kefu" unicode="&#59217;" d="M759.466667 896H264.533333C119.466667 896 0 776.533333 0 631.466667v-360.533334c0-10.666667 8.533333-17.066667 17.066667-17.066666 10.666667 0 17.066667 8.533333 17.066666 17.066666V631.466667c0 125.866667 102.4 230.4 230.4 230.4h494.933334c125.866667 0 230.4-102.4 230.4-230.4v-494.933334c0-125.866667-102.4-230.4-230.4-230.4H526.933333c-10.666667 0-17.066667-8.533333-17.066666-17.066666 0-10.666667 8.533333-17.066667 17.066666-17.066667h232.533334C904.533333-128 1024-8.533333 1024 136.533333V631.466667C1024 776.533333 904.533333 896 759.466667 896zM398.933333-91.733333h-134.4c-125.866667 0-230.4 102.4-230.4 230.4v21.333333c0 10.666667-8.533333 17.066667-17.066666 17.066667-10.666667 0-17.066667-8.533333-17.066667-17.066667v-21.333333C0-8.533333 119.466667-128 264.533333-128h134.4c10.666667 0 17.066667 8.533333 17.066667 17.066667 0 10.666667-6.4 19.2-17.066667 19.2zM716.8 337.066667v93.866666c0 113.066667-91.733333 204.8-204.8 204.8s-204.8-91.733333-204.8-204.8v-93.866666c0-34.133333 27.733333-61.866667 61.866667-61.866667 34.133333 0 61.866667 27.733333 61.866666 61.866667v32c0 34.133333-27.733333 61.866667-61.866666 61.866666-10.666667 0-21.333333-2.133333-32-8.533333v8.533333c0 96 76.8 172.8 172.8 172.8s172.8-76.8 172.8-172.8v-8.533333c-8.533333 6.4-19.2 8.533333-32 8.533333-34.133333 0-61.866667-27.733333-61.866667-61.866666v-32c0-34.133333 27.733333-61.866667 61.866667-61.866667 6.4 0 14.933333 2.133333 21.333333 4.266667-23.466667-66.133333-87.466667-113.066667-162.133333-113.066667-8.533333 0-14.933333-6.4-14.933334-14.933333s6.4-14.933333 14.933334-14.933334c115.2-4.266667 206.933333 87.466667 206.933333 200.533334z m-345.6 61.866666c17.066667 0 32-14.933333 32-32v-32c0-17.066667-14.933333-32-32-32s-32 14.933333-32 32v32c0 19.2 14.933333 32 32 32z m281.6-93.866666c-17.066667 0-32 14.933333-32 32v32c0 17.066667 14.933333 32 32 32s32-14.933333 32-32v-32c0-17.066667-14.933333-32-32-32z"  horiz-adv-x="1024" />
      
      <glyph glyph-name="lihua" unicode="&#59218;" d="M925.194449 786.849959c0-23.740082-19.476898-42.966204-43.488653-42.966204-24.032653 0-43.488653 19.226122-43.488653 42.966204 0 23.740082 19.456 42.966204 43.467755 42.966204 24.032653 0 43.509551-19.226122 43.509551-42.966204zM403.267918 722.400653c24.032653 0 43.467755 19.226122 43.467755 42.966204 0 23.740082-19.435102 42.966204-43.467755 42.966204s-43.509551-19.226122-43.509551-42.966204c0-23.740082 19.476898-42.966204 43.509551-42.966204zM575.926857 745.179429a32.893388 32.893388 0 0 0 46.121796 0c27.376327-27.041959 41.795918-59.998041 36.425143-97.175511-5.078204-35.004082-26.958367-67.960163-58.15902-98.805551l-108.75298-107.41551a32.914286 32.914286 0 0 0-46.121796 0 31.973878 31.973878 0 0 0 0 45.557551l108.732082 107.436408c26.770286 26.456816 37.511837 47.229388 39.706122 62.338613 1.880816 12.956735-1.83902 26.561306-17.972245 42.485551a31.973878 31.973878 0 0 0 0 45.578449zM280.408816 533.336816a32.87249 32.87249 0 0 0 30.406531-8.986122l355.056326-360.406204c7.878531-8.003918 10.992327-19.476898 8.254694-30.302041a32.391837 32.391837 0 0 0-21.733877-22.883265L108.669388-60.31151a32.893388 32.893388 0 0 0-33.290449 8.254694 31.95298 31.95298 0 0 0-7.397878 33.123265l188.645878 531.476898c3.740735 10.511673 12.726857 18.390204 23.760979 20.793469z m20.375511-91.240489L151.217633 20.730776l431.083102 135.627755-281.495511 285.737796zM730.801633 420.299755c32.684408 32.287347 61.126531 44.261878 85.660734 44.261878 24.534204 0 52.976327-11.974531 85.681633-44.261878 12.726857-12.580571 33.374041-12.580571 46.121796 0a31.973878 31.973878 0 0 1 0 45.557551c-39.810612 39.329959-83.86351 63.174531-131.803429 63.174531-47.939918 0-92.013714-23.823673-131.803428-63.153633l-108.732082-107.41551a31.95298 31.95298 0 0 1 0-45.599347c12.747755-12.580571 33.394939-12.580571 46.121796 0l108.732082 107.41551zM881.684898 249.709714c24.032653 0 43.509551 19.226122 43.509551 42.966204 0 23.740082-19.476898 42.987102-43.488653 42.987102-24.032653 0-43.488653-19.226122-43.488653-42.987102 0-23.719184 19.456-42.966204 43.467755-42.966204zM859.95102 99.307102c0-23.719184-19.456-42.966204-43.488653-42.966204s-43.488653 19.226122-43.488653 42.966204c0 23.740082 19.456 42.987102 43.488653 42.987102s43.488653-19.24702 43.488653-42.987102z"  horiz-adv-x="1024" />
      
      <glyph glyph-name="lianjietiaozhuan" unicode="&#59219;" d="M399.168 654.592c0 30.208 24.512 54.656 54.656 54.656h323.84a54.528 54.528 0 0 0 52.8-29.44 54.4 54.4 0 0 0 6.784-26.24V325.76a54.592 54.592 0 1 0-109.248 0v197.76l-448.128-448.192a54.592 54.592 0 1 0-77.248 77.248l447.296 447.36H453.824a54.592 54.592 0 0 0-54.656 54.592z"  horiz-adv-x="1024" />
      
      <glyph glyph-name="shangpin" unicode="&#59220;" d="M399.006897-92.689655H264.827586C137.710345-92.689655 35.310345 9.710345 35.310345 136.827586v21.186207c0 10.593103-7.062069 17.655172-17.655173 17.655173s-17.655172-7.062069-17.655172-17.655173V136.827586c0-146.537931 118.289655-264.827586 264.827586-264.827586h134.179311c10.593103 0 17.655172 7.062069 17.655172 17.655172s-7.062069 17.655172-17.655172 17.655173zM759.172414 896H264.827586C118.289655 896 0 777.710345 0 631.172414v-360.165517c0-10.593103 7.062069-17.655172 17.655172-17.655173s17.655172 7.062069 17.655173 17.655173V631.172414C35.310345 758.289655 137.710345 860.689655 264.827586 860.689655h494.344828c127.117241 0 229.517241-102.4 229.517241-229.517241v-494.344828c0-127.117241-102.4-229.517241-229.517241-229.517241H526.124138c-10.593103 0-17.655172-7.062069-17.655172-17.655173s7.062069-17.655172 17.655172-17.655172H759.172414c146.537931 0 264.827586 118.289655 264.827586 264.827586V631.172414c0 146.537931-118.289655 264.827586-264.827586 264.827586zM512 634.703448c-51.2 0-93.572414-42.372414-93.572414-93.572414v-31.77931h-38.841379c-49.434483 0-90.041379-37.075862-93.572414-86.510345l-15.889655-188.910345c-5.296552-54.731034 38.841379-102.4 93.572414-102.4h298.372414c54.731034 0 98.868966 47.668966 93.572413 102.4l-15.889655 188.910345c-3.531034 49.434483-44.137931 86.510345-93.572414 86.510345h-38.841379v31.77931c-1.765517 51.2-44.137931 93.572414-95.337931 93.572414z m-63.558621-93.572414c0 35.310345 28.248276 63.558621 63.558621 63.558621s63.558621-28.248276 63.558621-63.558621v-31.77931h-125.351724v31.77931z m195.972414-63.55862c31.77931 0 60.027586-24.717241 61.793104-58.262069l17.655172-187.144828c3.531034-37.075862-26.482759-68.855172-61.793103-68.855172H363.696552c-37.075862 0-65.324138 31.77931-61.793104 68.855172l15.889655 188.910345c3.531034 31.77931 30.013793 58.262069 61.793104 58.262069h264.827586zM434.317241 226.868966h157.131035c8.827586 0 15.889655 7.062069 15.889655 15.889655s-7.062069 15.889655-15.889655 15.889655h-157.131035c-8.827586 0-15.889655-7.062069-15.889655-15.889655s7.062069-15.889655 15.889655-15.889655z"  horiz-adv-x="1024" />
      
      <glyph glyph-name="xiangyoujiantou" unicode="&#59221;" d="M703.1808 82.176l278.8864 278.8864a28.7232 28.7232 0 0 1 0 45.312l-278.8864 278.8864a28.416 28.416 0 1 1-40.2432-40.2432l232.9088-232.8576H110.7456a28.4672 28.4672 0 1 1 0-56.832h785.1008l-232.9088-232.96a28.4672 28.4672 0 1 1 40.2432-40.192z"  horiz-adv-x="1075" />
      
      <glyph glyph-name="yuyanqiehuan" unicode="&#59222;" d="M935.253333 411.306667C921.6 629.76 737.28 807.253333 512 807.253333S102.4 629.76 88.746667 411.306667v-54.613334c13.653333-218.453333 197.973333-395.946667 423.253333-395.946666s409.6 177.493333 423.253333 395.946666v54.613334zM491.52 738.986667c13.653333 13.653333 20.48 13.653333 20.48 13.653333s6.826667 0 20.48-13.653333c13.653333-13.653333 27.306667-40.96 40.96-75.093334 27.306667-61.44 40.96-150.186667 40.96-252.586666H402.773333c0 102.4 20.48 191.146667 40.96 252.586666 20.48 34.133333 34.133333 61.44 47.786667 75.093334z m-61.44 6.826666c-40.96-68.266667-75.093333-191.146667-75.093333-334.506666H143.36c6.826667 163.84 129.706667 300.373333 286.72 334.506666zM143.36 356.693333h211.626667c0-143.36 34.133333-266.24 75.093333-334.506666-157.013333 34.133333-279.893333 170.666667-286.72 334.506666z m389.12-327.68c-13.653333-13.653333-20.48-13.653333-20.48-13.653333s-6.826667 0-20.48 13.653333c-13.653333 13.653333-27.306667 40.96-40.96 75.093334-27.306667 61.44-40.96 150.186667-40.96 252.586666h211.626667c0-102.4-20.48-191.146667-40.96-252.586666-20.48-34.133333-34.133333-61.44-47.786667-75.093334z m61.44-6.826666c40.96 68.266667 75.093333 191.146667 75.093333 334.506666h211.626667c-6.826667-163.84-129.706667-300.373333-286.72-334.506666z m75.093333 389.12c0 143.36-34.133333 266.24-75.093333 334.506666 157.013333-34.133333 273.066667-170.666667 286.72-334.506666H669.013333z"  horiz-adv-x="1024" />
      
      <glyph glyph-name="zhinan" unicode="&#59223;" d="M398.933333-91.733333h-134.4c-125.866667 0-230.4 102.4-230.4 230.4v21.333333c0 10.666667-8.533333 17.066667-17.066666 17.066667-10.666667 0-17.066667-8.533333-17.066667-17.066667v-21.333333C0-8.533333 119.466667-128 264.533333-128h134.4c10.666667 0 17.066667 8.533333 17.066667 17.066667 0 10.666667-6.4 19.2-17.066667 19.2zM759.466667 896H264.533333C119.466667 896 0 776.533333 0 631.466667v-360.533334c0-10.666667 8.533333-17.066667 17.066667-17.066666 10.666667 0 17.066667 8.533333 17.066666 17.066666V631.466667c0 125.866667 102.4 230.4 230.4 230.4h494.933334c125.866667 0 230.4-102.4 230.4-230.4v-494.933334c0-125.866667-102.4-230.4-230.4-230.4H526.933333c-10.666667 0-17.066667-8.533333-17.066666-17.066666 0-10.666667 8.533333-17.066667 17.066666-17.066667h232.533334C904.533333-128 1024-8.533333 1024 136.533333V631.466667C1024 776.533333 904.533333 896 759.466667 896zM567.466667 603.733333c8.533333 0 14.933333 6.4 14.933333 14.933334 0 8.533333-6.4 14.933333-14.933333 14.933333h-117.333334c-8.533333 0-14.933333-6.4-14.933333-14.933333 0-8.533333 6.4-14.933333 14.933333-14.933334h117.333334zM522.666667 439.466667c-2.133333 4.266667-8.533333 8.533333-12.8 8.533333s-10.666667-2.133333-12.8-8.533333L448 356.266667c-2.133333-4.266667-2.133333-10.666667 0-14.933334l46.933333-83.2c2.133333-4.266667 8.533333-8.533333 12.8-8.533333s10.666667 2.133333 12.8 8.533333l46.933334 83.2c2.133333 4.266667 2.133333 10.666667 0 14.933334l-44.8 83.2z m-14.933334-140.8l-29.866666 51.2 29.866666 51.2 29.866667-51.2-29.866667-51.2zM723.2 347.733333c0 119.466667-96 215.466667-215.466667 215.466667s-215.466667-96-215.466666-215.466667 96-215.466667 215.466666-215.466666 215.466667 98.133333 215.466667 215.466666z m-198.4-183.466666v29.866666c0 8.533333-6.4 14.933333-14.933333 14.933334s-14.933333-6.4-14.933334-14.933334v-29.866666c-89.6 8.533333-160 78.933333-168.533333 168.533333h29.866667c8.533333 0 14.933333 6.4 14.933333 14.933333s-6.4 14.933333-14.933333 14.933334h-29.866667c8.533333 89.6 78.933333 160 168.533333 168.533333v-29.866667c0-8.533333 6.4-14.933333 14.933334-14.933333s14.933333 6.4 14.933333 14.933333V533.333333c89.6-8.533333 160-78.933333 168.533333-168.533333H661.333333c-8.533333 0-14.933333-6.4-14.933333-14.933333s6.4-14.933333 14.933333-14.933334h29.866667c-6.4-91.733333-78.933333-162.133333-166.4-170.666666z"  horiz-adv-x="1024" />
      
      <glyph glyph-name="lihua-copy" unicode="&#59232;" d="M109.150041 797.194449c23.740082 0 42.966204-19.476898 42.96620401-43.488653 0-24.03265301-19.226122-43.488653-42.96620401-43.48865301-23.740082 0-42.96620401 19.456-42.966204 43.46775501 0 24.03265301 19.226122 43.509551 42.966204 43.509551zM173.599347 275.267918c0 24.03265301-19.226122 43.467755-42.966204 43.46775499-23.740082 0-42.966204-19.435102-42.966204-43.46775499s19.226122-43.509551 42.966204-43.509551c23.740082 0 42.966204 19.476898 42.966204 43.509551zM150.82057099 447.926857a32.893388 32.893388 0 0 0 1e-8 46.121796c27.041959 27.376327 59.998041 41.79591799 97.175511 36.425143 35.00408201-5.078204 67.960163-26.958367 98.805551-58.15902l107.41551-108.75297999a32.914286 32.914286 0 0 0-1e-8-46.12179601 31.973878 31.973878 0 0 0-45.55755099 0l-107.436408 108.732082c-26.456816 26.770286-47.229388 37.511837-62.338613 39.706122-12.956735 1.880816-26.561306-1.83902-42.485551-17.972245a31.973878 31.973878 0 0 0-45.578449 0zM362.66318401 152.408816a32.87249 32.87249 0 0 0 8.98612199 30.406531l360.406204 355.056326c8.003918 7.878531 19.476898 10.992327 30.302041 8.254694a32.391837 32.391837 0 0 0 22.883265-21.733877L956.31151-19.33061200999998a32.893388 32.893388 0 0 0-8.254694-33.29044899 31.95298 31.95298 0 0 0-33.123265-7.397878l-531.476898 188.64587799c-10.511673 3.74073501-18.390204 12.726857-20.793469 23.76097901z m91.240489 20.375511L875.269224 23.217632999999978l-135.627755 431.083102-285.73779599-281.495511zM475.700245 602.8016329899999c-32.287347 32.68440801-44.261878 61.126531-44.261878 85.66073401 0 24.534204 11.974531 52.976327 44.26187799 85.681633 12.580571 12.726857 12.580571 33.374041 1e-8 46.12179601a31.973878 31.973878 0 0 1-45.557551-1e-8c-39.329959-39.810612-63.174531-83.86351-63.174531-131.803429 0-47.939918 23.823673-92.013714 63.153633-131.803428l107.41551-108.732082a31.95298 31.95298 0 0 1 45.599347 0c12.580571 12.747755 12.580571 33.394939 0 46.121796l-107.41551 108.732082zM646.290286 753.684898c0 24.03265301-19.226122 43.509551-42.966204 43.509551-23.740082 0-42.987102-19.476898-42.987102-43.48865299 0-24.03265301 19.226122-43.488653 42.987102-43.48865301 23.719184 0 42.96620401 19.456 42.966204 43.467755zM796.692898 731.95102c23.719184 0 42.96620401-19.456 42.966204-43.488653s-19.226122-43.488653-42.966204-43.488653c-23.740082 0-42.987102 19.456-42.987102 43.488653s19.24702 43.488653 42.987102 43.488653z"  horiz-adv-x="1024" />
      
    </font>
</defs>
</svg>
